<?xml version="1.0" standalone="no"?>
<!DOCTYPE svg PUBLIC "-//W3C//DTD SVG 1.1//EN" "http://www.w3.org/Graphics/SVG/1.1/DTD/svg11.dtd">
<svg xmlns="http://www.w3.org/2000/svg">
<metadata>Copyright (C) 2020 by original authors @ fontello.com</metadata>
<defs>
<font id="fontello" horiz-adv-x="1000" >
<font-face font-family="fontello" font-weight="400" font-stretch="normal" units-per-em="1000" ascent="850" descent="-150" />
<missing-glyph horiz-adv-x="1000" />
<glyph glyph-name="angle-double-left-solid" unicode="&#xe800;" d="M437 383l266 266c18 18 48 18 66 0l44-44c18-19 18-48 0-66l-188-189 188-188c18-19 18-48 0-66l-44-45c-18-18-48-18-66 0l-266 266c-18 18-18 48 0 66z m-375-66l266-266c18-18 48-18 66 0l44 44c18 19 18 48 0 67l-188 188 188 188c18 19 18 48 0 67l-44 44c-18 18-48 18-66 0l-266-266c-18-18-18-48 0-66z" horiz-adv-x="875" />

<glyph glyph-name="angle-double-right-solid" unicode="&#xe801;" d="M438 317l-265-266c-19-18-49-18-67 0l-44 44c-18 19-18 48 0 67l188 188-188 188c-18 18-18 48 0 66l44 45c18 18 48 18 66 0l266-266c18-18 18-48 0-66z m375 66l-265 266c-19 18-49 18-67 0l-44-44c-18-19-18-48 0-66l188-189-188-188c-18-18-18-48 0-66l44-44c19-19 48-19 67 0l265 265c18 18 18 48 0 66z" horiz-adv-x="875" />

<glyph glyph-name="angle-left-solid" unicode="&#xe802;" d="M62 383l266 266c18 18 48 18 66 0l44-44c18-19 18-48 0-66l-188-189 188-188c18-19 18-48 0-66l-44-45c-18-18-48-18-66 0l-266 266c-18 18-18 48 0 66z" horiz-adv-x="500" />

<glyph glyph-name="angle-right-solid" unicode="&#xe803;" d="M438 317l-265-266c-19-18-49-18-67 0l-44 44c-18 19-18 48 0 67l188 188-188 188c-18 18-18 48 0 66l44 45c18 18 48 18 66 0l266-266c18-18 18-48 0-66z" horiz-adv-x="500" />

<glyph glyph-name="angle-up-solid" unicode="&#xe804;" d="M346 538l265-265c19-19 19-49 0-67l-44-44c-18-18-48-18-66 0l-188 188-189-188c-18-18-48-18-66 0l-44 44c-19 18-19 48 0 66l265 266c19 18 48 18 67 0z" horiz-adv-x="625" />

<glyph glyph-name="angle-down-solid" unicode="&#xe805;" d="M279 162l-265 266c-19 18-19 48 0 66l44 44c18 18 48 18 66 0l188-188 189 188c18 18 48 18 66 0l44-44c18-19 18-48 0-66l-266-266c-18-18-47-18-66 0z" horiz-adv-x="625" />

<glyph glyph-name="caret-left-solid" unicode="&#xe806;" d="M375 601v-502c0-35-42-52-67-28l-251 251c-15 16-15 40 0 56l251 251c25 25 67 7 67-28z" horiz-adv-x="375" />

<glyph glyph-name="caret-right-solid" unicode="&#xe807;" d="M0 99v502c0 35 42 53 67 28l251-251c15-16 15-40 0-56l-251-251c-25-24-67-7-67 28z" horiz-adv-x="375" />

<glyph glyph-name="caret-up-solid" unicode="&#xe808;" d="M564 163h-503c-35 0-52 42-27 66l251 252c15 15 40 15 55 0l251-252c25-24 8-66-27-66z" horiz-adv-x="625" />

<glyph glyph-name="caret-down-solid" unicode="&#xe809;" d="M61 475h503c34 0 52-42 27-67l-251-251c-15-15-40-15-55 0l-251 251c-25 25-8 67 27 67z" horiz-adv-x="625" />

<glyph glyph-name="check-solid" unicode="&#xe80a;" d="M340-8l-325 325c-20 19-20 51 0 71l70 70c20 20 52 20 71 0l219-219 469 469c20 20 51 20 71 0l70-70c20-20 20-52 0-71l-575-575c-19-20-51-20-70 0z" horiz-adv-x="1000" />

<glyph glyph-name="chevron-left-solid" unicode="&#xe80b;" d="M67 383l380 380c18 18 48 18 66 0l45-45c18-18 18-47 0-66l-301-302 301-302c18-19 18-48 0-67l-45-44c-18-18-48-18-66 0l-380 380c-18 18-18 48 0 66z" horiz-adv-x="625" />

<glyph glyph-name="chevron-right-solid" unicode="&#xe80c;" d="M558 317l-380-380c-18-18-48-18-66 0l-45 44c-18 19-18 48 0 67l301 302-301 302c-18 19-18 48 0 66l45 45c18 18 48 18 66 0l380-380c18-18 18-48 0-66z" horiz-adv-x="625" />

<glyph glyph-name="chevron-up-solid" unicode="&#xe80d;" d="M471 595l379-379c19-19 19-48 0-67l-44-44c-18-18-48-18-66 0l-302 301-303-301c-18-18-48-18-66 0l-44 44c-18 19-18 48 0 67l379 379c19 18 48 18 67 0z" horiz-adv-x="875" />

<glyph glyph-name="chevron-down-solid" unicode="&#xe80e;" d="M404 105l-379 380c-18 18-18 48 0 66l44 44c18 18 48 18 66 0l303-301 302 301c18 18 48 18 66 0l44-44c19-18 19-48 0-66l-379-380c-19-18-48-18-67 0z" horiz-adv-x="875" />

<glyph glyph-name="filter-solid" unicode="&#xe80f;" d="M953 850h-906c-42 0-63-50-33-80l361-361v-403c0-15 8-29 20-38l156-110c31-21 74 1 74 39v512l361 361c30 29 9 80-33 80z" horiz-adv-x="1000" />

<glyph glyph-name="level-up-solid" unicode="&#xe810;" d="M674 569l-266 267c-18 19-48 19-66 0l-266-267c-18-19-18-48 0-66l43-43c19-19 50-19 68 1l110 118v-573h-164a23 23 0 0 1-17-7l-109-109c-15-15-4-40 17-40h382c26 0 47 21 47 47v682l110-118c18-20 49-20 68-1l43 43c18 18 18 47 0 66z" horiz-adv-x="688" />

<glyph glyph-name="level-up-regular" unicode="&#xe811;" d="M618 616l-226 227c-10 9-24 9-34 0l-226-227c-9-9-9-24 0-33l43-44c10-9 25-9 34 1l111 121v-702h-234a23 23 0 0 1-17-7l-62-62c-15-15-4-40 17-40h359c26 0 47 21 47 47v764l111-121c9-10 24-10 34-1l43 44c9 9 9 24 0 33z" horiz-adv-x="625" />

<glyph glyph-name="cp-icon" unicode="&#xe812;" d="M500 790a42 42 0 0 0 21-6l193-111a41 41 0 0 0 21-36v-187a41 41 0 0 1 20-36l164-94a41 41 0 0 0 21-36v-222a41 41 0 0 0-21-35l-193-111a42 42 0 0 0-42 0l-163 94a42 42 0 0 1-42 0l-163-94a42 42 0 0 0-42 0l-193 111a41 41 0 0 0-21 36v222a41 41 0 0 0 21 35l164 94a41 41 0 0 1 20 36v187a41 41 0 0 0 21 36l193 111a42 42 0 0 0 21 6m0 60a102 102 0 0 1-51-13l-193-111a102 102 0 0 1-51-88v-177l-154-88a102 102 0 0 1-51-88v-222a102 102 0 0 1 51-88l193-111a102 102 0 0 1 102 0l154 88 154-88a102 102 0 0 1 102 0l193 110a102 102 0 0 1 51 88v222a102 102 0 0 1-51 88l-154 89v176a102 102 0 0 1-51 88l-193 111a102 102 0 0 1-51 14z m148-207l-121 69a55 55 0 0 1-54 0l-121-69a55 55 0 0 1-27-48v-137a55 55 0 0 1 27-48l121-69a55 55 0 0 1 54 0l121 69a55 55 0 0 1 27 48v137a55 55 0 0 1-27 48z m-500-586l120-69a55 55 0 0 1 54 0l121 69a55 55 0 0 1 27 48v137a55 55 0 0 1-27 48l-120 69a55 55 0 0 1-55 0l-120-69a55 55 0 0 1-28-48v-137a55 55 0 0 1 28-48z m732 48v137a55 55 0 0 1-27 48l-121 69a55 55 0 0 1-54 0l-121-69a55 55 0 0 1-27-48v-137a55 55 0 0 1 27-48l121-69a55 55 0 0 1 54 0l121 69a55 55 0 0 1 27 48z" horiz-adv-x="1000" />

<glyph glyph-name="cp-panel-icon" unicode="&#xe813;" d="M715 747l-163 93a74 74 0 0 1-74 0l-163-93a74 74 0 0 1-37-65v-186a74 74 0 0 1 37-65l163-93a74 74 0 0 1 74 0l163 93a74 74 0 0 1 37 65v186a74 74 0 0 1-37 65z m-678-794l163-93a74 74 0 0 1 74 0l163 93a74 74 0 0 1 37 65v186a74 74 0 0 1-37 65l-162 93a74 74 0 0 1-75 0l-162-93a74 74 0 0 1-38-65v-186a74 74 0 0 1 37-65z m992 65v186a74 74 0 0 1-37 65l-163 93a74 74 0 0 1-74 0l-162-93a74 74 0 0 1-38-65v-186a74 74 0 0 1 38-65l162-93a74 74 0 0 1 74 0l163 93a74 74 0 0 1 37 65z" horiz-adv-x="1029" />

<glyph glyph-name="pen-solid" unicode="&#xe814;" d="M568 668l250-250-543-543-223-25c-30-3-55 22-52 52l25 223 543 543z m405 37l-118 118c-36 36-96 36-132 0l-111-111 250-250 111 111c36 36 36 96 0 132z" horiz-adv-x="1000" />

<glyph glyph-name="pen-regular" unicode="&#xe815;" d="M963 740l-73 73c-24 25-56 37-88 37s-64-12-89-37l-145-145-68-68-475-475-25-223c-3-28 19-52 47-52 2 0 3 0 5 0l223 25 475 475 68 68 145 145c49 49 49 128 0 177z m-731-776l-132-14 15 132 451 452 61 60 117-117-60-61-452-452z m665 666l-86-87-118 118 87 86c8 8 17 9 22 9s14-1 22-9l73-73c12-12 12-32 0-44z" horiz-adv-x="1000" />

<glyph glyph-name="times-solid" unicode="&#xe816;" d="M474 350l196 195c24 24 24 63 0 87l-44 44c-24 24-63 24-87 0l-195-196-196 196c-24 24-63 24-87 0l-43-44c-24-24-24-62 0-87l195-195-195-195c-24-24-24-63 0-87l43-44c24-24 63-24 87 0l196 196 195-196c24-24 63-24 87 0l44 44c24 24 24 63 0 87l-196 195z" horiz-adv-x="688" />

<glyph glyph-name="sync-solid" unicode="&#xe817;" d="M861 825l8-161c-89 104-221 170-369 170-237 0-434-169-476-394-3-14 8-27 23-27h96c11 0 20 7 23 18 36 151 172 263 334 263 119 0 224-60 285-152l-198 9c-13 1-24-10-24-23v-93c0-13 10-23 23-23h391c13 0 24 10 24 23v392c0 13-11 23-24 23h-92c-14 0-24-11-24-25z m-361-819c-119 0-224 61-285 152l199-9c13-1 24 10 24 23v93c0 13-10 23-23 23h-392c-12 0-23-10-23-23v-392c0-13 11-23 23-23h93c13 0 24 11 23 25l-8 161c89-104 221-170 369-170 237 0 434 169 476 394 3 14-8 28-23 28h-96c-11 0-20-8-23-19-36-151-172-263-334-263z" horiz-adv-x="1000" />

<glyph glyph-name="random-solid" unicode="&#xe818;" d="M986 149c19-18 19-48 0-66l-156-157c-29-29-80-9-80 33v79h-115a23 23 0 0 0-17 7l-138 148 104 111 104-110h62v78c0 42 51 62 80 33l156-156z m-963 357h165l103-110 104 111-138 148a23 23 0 0 1-17 8h-217c-12 0-23-11-23-24v-109c0-13 11-24 23-24z m727 0v-78c0-42 51-62 80-33l156 156c19 19 19 48 0 67l-156 156c-29 29-80 9-80-33v-78h-115a23 23 0 0 1-17-8l-430-461h-165c-12 0-23-11-23-24v-109c0-13 11-23 23-23h217c6 0 13 2 17 7l431 461h62z" horiz-adv-x="1000" />

<glyph glyph-name="random-regular" unicode="&#xe819;" d="M986 69l-154-143c-30-29-82-8-82 34v78h-60c-7 0-13 2-18 7l-175 190 74 81 156-169h23v94c0 42 52 63 82 33l154-138c19-19 19-49 0-67z m-963 484h180l156-168 74 80-175 190c-5 5-11 8-18 8h-217c-12 0-23-11-23-24v-62c0-13 11-24 23-24z m963 82l-154 139c-30 29-82 8-82-33v-78h-60c-7 0-13-3-18-8l-469-508h-180c-12 0-23-11-23-24v-62c0-13 11-23 23-23h217c7 0 13 2 17 7l470 508h23v-94c0-41 52-62 82-33l154 143c19 18 19 48 0 66z" horiz-adv-x="1000" />

<glyph glyph-name="assembled_icon" unicode="&#xe81a;" d="M1416 103c9 0 17-2 22-8s9-14 9-22v-62c0-8-3-16-9-22s-13-8-22-8h-160c4-12 6-22 6-31 0-26-9-47-27-65s-40-27-65-27-47 9-65 27-27 40-27 65c0 10 2 21 6 31h-381c4-12 6-22 6-31 0-26-9-47-27-65s-40-27-65-27-48 9-66 27c-18 18-26 40-26 65 0 10 2 21 6 31h-160c-9 0-17 2-22 8s-9 14-9 22v709h-96c-9 0-17 3-22 9s-9 13-9 22v61c0 9 3 17 9 22s13 9 22 9h185c9 0 17-3 22-9s9-13 9-22v-709h956z m-802 124c-9 0-17 2-22 8s-9 14-9 22v494c0 8 3 16 9 22s13 8 22 8h277 186 277c9 0 17-2 22-8s9-14 9-22v-494c0-8-3-16-9-22s-13-8-22-8h-740z" horiz-adv-x="1667" />

<glyph glyph-name="unassembled_icon" unicode="&#xe81b;" d="M1416 103c9 0 17-3 22-9s9-13 9-22v-61c0-9-3-17-9-22s-13-9-22-9h-160c4-11 6-22 6-31 0-26-9-47-27-65s-40-27-65-27-47 9-65 27-27 40-27 65c0 10 2 21 6 31h-381c4-11 6-22 6-31 0-26-9-47-27-65s-40-27-65-27-48 9-66 27-26 40-26 65c0 10 2 21 6 31h-160c-9 0-17 3-22 9s-9 13-9 22v708h-96c-9 0-17 3-22 9s-9 13-9 22v62c0 9 3 17 9 22s13 9 22 9h185c9 0 17-3 22-9s9-13 9-22v-709h956z m-802 123c-9 0-17 3-22 9s-9 13-9 22v493c0 9 3 17 9 22s13 9 22 9h308c9 0 17-3 22-9s9-13 9-22v-493c0-9-3-17-9-22s-13-9-22-9h-308z m432 309c-9 0-17 2-22 8s-9 14-9 22v186c0 8 3 16 9 22s13 8 22 8h185c9 0 17-2 22-8s9-14 9-22v-186c0-8-3-16-9-22s-13-8-22-8c0 0-185 0-185 0z m0-309c-9 0-17 3-22 9s-9 13-9 22v185c0 9 3 17 9 22s13 9 22 9h308c9 0 17-3 22-9s9-13 9-22v-185c0-9-3-17-9-22s-13-9-22-9c0 0-308 0-308 0z" horiz-adv-x="1667" />
</font>
</defs>
</svg>
